#TITLE:Hello Planet;
#SUBTITLE:;
#ARTIST:Hatsune Miku;
#TITLETRANSLIT:;
#SUBTITLETRANSLIT:;
#ARTISTTRANSLIT:;
#CREDIT:;
#BANNER:Hatsune Miku - Hello Planet-banner.jpg;
#BACKGROUND:Hatsune Miku - Hello Planet-bg.jpg;
#LYRICSPATH:Hatsune Miku - Hello Planet.lrc;
#CDTITLE:CDTitle.png;
#MUSIC:Hatsune Miku - Hello Planet.ogg;
#OFFSET:0.560;
#SAMPLESTART:87.400;
#SAMPLELENGTH:12.000;
#SELECTABLE:YES;
#BPMS:0.000=150.000;
#STOPS:;
#BGCHANGES:;
// cache tags:
#FIRSTBEAT:4.000;
#LASTBEAT:295.500;
#SONGFILENAME:songs/Vocaloid Party/Hatsune Miku - Hello Planet/Hatsune Miku - Hello Planet.sm;
#HASMUSIC:1;
#HASBANNER:1;
#MUSICLENGTH:118.814;
// end cache tags

//---------------dance-single - ----------------
#NOTES:
     dance-single:
     :
     Challenge:
     10:
     0.855,0.902,0.286,0.177,0.707,652.000,34.000,21.000,8.000,0.000:
0000
0000
0000
0000
,
1000
0100
0010
0001
0000
1000
0010
0000
0100
0001
0000
0010
,
0001
0100
0000
0010
0000
0000
0100
0000
0000
0010
0000
0000
1000
0010
0000
0100
0000
0000
0001
0000
0000
1000
0000
0000
,
0001
0010
0100
1000
0001
0000
0100
0010
1000
0000
0000
0100
0000
0000
0010
0100
,
0010
0000
0100
1000
0100
0000
0010
0001
0010
0000
0000
0000
0000
0000
0000
0000
,
0001
0000
0001
0000
0001
0000
0001
1000
0100
0000
0100
0000
0100
0000
0100
1000
,
0010
0000
0010
0000
0010
0000
0010
1000
0001
0000
0001
0000
0001
0000
0001
0100
,
0010
0000
0010
0000
0010
0000
0010
1000
0100
0000
0100
0000
0100
0000
0100
0010
,
0001
0000
0001
0000
0001
0000
0001
1000
0010
0000
1000
0010
0100
0000
0001
0010
,
0001
0000
0001
0000
0001
0000
0001
0100
0010
0000
0010
0000
0010
0000
0010
1000
,
0100
0000
0100
0000
0100
0000
0100
0010
0001
0000
0001
0000
0001
0000
0001
0010
,
0100
0000
0100
0000
0100
0000
0100
0010
0001
0000
0001
0000
0001
0000
0001
0100
,
0010
0000
0010
0000
0010
0000
0010
1000
0100
0000
1000
0100
0010
0000
0001
1000
,
0020
1000
0100
0130
0201
0010
0001
0301
,
1002
0000
0010
0000
1000
0000
1003
0000
2010
0000
0001
0000
0010
0000
3010
0200
,
0040
0000
0000
0000
0000
0030
0310
2000
0004
0000
0000
0000
0000
0003
3001
0020
,
0400
0000
0000
0000
0000
0300
0130
2000
0004
0000
0000
0000
0000
0003
3001
0010
,
0100
0000
0010
0000
0001
0000
1000
0010
1000
0000
0010
0000
0100
0000
0010
1000
,
0010
0000
0100
0000
0001
0000
0010
0100
0010
0000
0001
0000
0100
0000
0001
1000
,
0001
0000
0100
0000
0010
0000
1000
0100
1000
0000
0100
0000
0020
0000
0000
0031
,
0100
1010
0100
0011
,
0001
0000
0000
1000
0010
0000
0000
0100
0001
0000
1000
0010
0100
0000
0010
0000
,
0010
0000
0000
1000
0100
0000
0000
0010
0001
0000
0100
0001
0010
0000
0001
0000
,
0001
0000
0000
0100
0010
0000
0000
0100
0001
0000
1000
0100
0010
0000
0001
0000
,
0001
0000
0000
0010
0100
0000
1000
0000
0010
0000
0000
1000
0001
0000
0010
0000
,
0100
0000
0000
0010
0001
0000
0000
0010
0100
0000
1000
0000
0010
0000
0000
0100
,
0010
0000
0000
1000
0001
0000
0000
0100
0010
0000
1000
0000
0010
0000
1000
0000
,
0001
0000
0000
0000
0000
0000
0100
0010
0100
0000
0010
0000
1000
0001
1000
0001
,
1000
0000
0000
0000
0001
0010
0100
1000
0100
0010
0001
0010
0001
0010
0001
0010
,
0100
0000
0010
0001
0010
0000
0100
0000
1000
0000
0010
0000
0100
0000
0010
0000
,
0000
0000
1000
0001
1000
0000
0010
0000
0100
0000
0001
0000
0010
0000
0100
0000
,
0010
0110
100M
0101
,
10M0
0000
0000
0000
0010
0000
1000
0001
1000
0000
0000
1000
0000
0000
1000
0000
,
0001
0010
0001
0100
0010
1000
0001
0100
,
0000
0010
1000
0001
0100
0001
1000
0100
,
0010
1001
M1M1
0110
,
1M1M
0000
0000
0000
0011
0000
0001
0100
0001
0000
0000
0110
0000
0000
0110
0000
,
0101
0000
1000
0010
1000
0000
0100
0000
0010
0000
0100
0000
1000
0000
0001
0000
,
0010
0100
1000
0001
0100
0001
0010
0100
,
0010
1100
1M00
0011
,
00M1
0000
0000
0000
1001
0000
0100
0001
0100
0000
0010
1000
0000
0000
0100
0000
,
0010
0001
0010
0001
1000
0010
1000
0100
,
0000
0100
1000
0010
1000
0010
0100
0001
,
0010
0000
0001
0100
0001
0000
0010
0100
1000
0000
0100
0000
0010
0001
0100
0001
,
0010
0000
0000
0000
0000
0000
0000
0000
0000
0000
0000
0000
0200
0000
0000
0000
0000
0000
0000
0000
0000
0000
0000
0000
0020
0000
0000
0000
0000
0000
0300
0000
0000
0000
0000
0000
1030
0000
0000
0001
0000
0000
1000
0000
0001
0000
1000
0000
,
0001
0010
0001
0100
0001
0010
0000
0100
1000
0100
0010
0100
0010
0100
0000
0010
,
0001
1000
0010
1000
0010
1000
0000
0001
0100
0010
0100
0001
0100
0010
0000
1000
,
0010
0100
0001
0100
0010
0100
0000
0010
1000
0001
0100
0010
1000
0010
0000
0100
,
0001
1000
0010
0100
0010
0100
0000
0010
1000
0100
0010
0100
1000
0100
1000
0100
,
0010
0000
0110
0011
0000
1001
1100
0000
,
0101
0000
1000
0100
1000
0100
1000
0000
0010
0000
0110
0000
0010
0000
1010
0000
,
0010
0000
1000
0010
1000
0000
0100
0000
1000
0000
0010
0000
0000
0000
0100
0000
,
0001
0000
1000
0010
1000
0000
0001
0000
0010
0000
0100
0000
1000
0000
0100
0000
,
0010
0200
1300
0020
0130
0002
0013
0200
,
2300
0000
0001
0000
0100
0000
0001
0000
3001
0010
0100
1000
0100
0010
0001
0010
,
0011
0000
0100
0000
0001
0000
0010
0100
0010
0000
0001
0000
0100
0000
0010
1000
,
0010
0000
0100
0000
0010
0000
0100
0001
0100
0000
0001
1000
0001
0000
1000
0100
,
1000
0010
1000
0010
0100
0010
0100
0101
,
0000
0000
1000
0000
0001
0000
1100
0000
0000
0000
1000
0100
0010
0100
0010
0100
,
0010
0000
0001
1000
0100
0000
0010
0001
0100
0000
0010
1000
0001
0000
1000
0010
,
0100
0000
0010
0100
0001
0000
1000
0001
0100
0000
1000
0010
0100
0001
0100
0010
,
1000
0100
0010
0001
0100
0001
0100
1010
,
0000
0000
1000
0000
0001
0000
0011
0000
0000
0000
1000
0100
0010
0001
1000
0100
,
0010
0000
0100
0000
0010
0000
0001
1000
0001
0000
0100
0000
0010
0000
1000
0100
,
1000
0000
0100
0000
0010
0000
0001
0100
0001
0000
1000
0100
1000
0000
0010
0100
,
0010
1000
0010
0100
0001
1000
0010
0110
,
0000
0000
1000
0000
0001
0000
1001
0000
0000
0000
1000
0001
0100
0001
0100
0001
,
0100
0000
0010
0100
0001
0000
0001
0010
0100
0000
0100
1000
0010
0000
0010
0100
,
0001
0000
0001
0010
0100
0000
0100
1000
0001
0000
0001
0100
0010
0100
0001
1000
,
0010
0100
0001
0010
0100
0010
0100
1100
,
0000
0000
0010
0000
0100
0000
0110
0000
0000
0000
0100
0010
1000
0100
0010
0001
,
1000
0001
0001
0200
0000
0310
1000
0002
,
0000
0103
0010
0200
0000
0301
1000
0200
,
0000
0310
0002
0000
0000
0000
0000
0003
;

//---------------dance-single - ----------------
#NOTES:
     dance-single:
     :
     Hard:
     9:
     0.747,0.711,0.151,0.589,0.362,533.000,18.000,70.000,3.000,1.000:
0000
0000
0000
0000
,
2000
0000
0000
0000
0000
3001
0100
0000
0001
1000
0000
0010
,
0101
0010
1000
0001
0110
0100
0010
0100
,
0001
0000
0000
0000
0000
0000
1000
0100
1000
0000
0000
0000
0000
0000
0001
1000
,
0002
0200
0020
0333
,
1000
0001
0100
0010
0000
1000
0001
0100
,
0000
0010
1000
0001
0100
0010
0100
0001
,
1000
0000
0000
0000
0000
0000
0001
1000
0002
0000
0000
0000
0003
0000
1000
0001
,
2000
0000
0000
0000
3000
0000
0010
0100
0020
0000
0000
0000
0030
0000
0100
0010
,
0100
0010
0010
0010
0010
1000
0001
0100
,
0000
0010
1000
0010
0100
0001
0010
0001
,
0100
0000
0000
0000
0000
0000
0000
0000
0000
0000
0200
0000
0000
0000
0000
0000
0000
0000
0000
0000
0000
0000
0000
0000
0300
0000
0000
0000
0000
0000
0100
0000
0010
0000
0100
0000
0000
0000
0000
0000
0000
0000
0001
0000
0000
0100
0000
0000
,
0001
0000
0000
1000
0010
0100
0010
0000
0100
0000
0000
0000
0010
1000
0010
1000
,
0010
1000
0001
0100
0010
0100
0001
0100
,
0000
0010
0000
1000
0010
0100
0001
0010
,
0001
0000
0000
0000
0000
0000
1000
0100
1000
0000
0000
0000
0001
0100
0001
0100
,
0001
0000
0000
0000
0000
0000
0000
0000
0000
0000
0000
0000
1000
0000
0010
0000
0000
0000
0000
0000
0000
0000
0000
0000
0000
0000
0000
0000
0000
0000
0000
0000
0000
0000
0000
0000
0000
0000
0000
0000
0000
0000
0100
0000
0000
0001
0000
0000
,
0100
0010
1000
0100
0010
0100
1000
0100
,
0000
0010
0000
0001
0010
0100
1000
0100
,
0000
0000
1000
0000
0010
0000
0100
0001
0100
0000
0010
0000
1000
0000
0100
0000
,
0010
0001
0100
0010
,
1000
0000
0010
0000
0100
0000
0001
0000
0100
0000
0010
0000
0100
0000
0001
1000
,
0001
0010
0100
0010
0001
0000
1000
0000
,
0010
0100
0001
1000
0100
0010
0100
1000
,
0010
0000
0000
0000
0100
0001
0100
0010
,
1000
0000
0000
0000
1000
0000
0000
0010
,
0100
0000
0001
0000
1000
0001
1000
0010
,
0100
0000
0010
0000
1000
0000
0001
0100
0001
0000
1000
0000
0001
0010
0100
1000
,
0002
0000
0000
0000
1003
0000
0010
0100
0010
0000
0000
1100
0000
0000
0101
0000
,
0100
0000
0010
1000
0010
0000
0100
0001
0100
0000
0010
0000
1000
0000
0000
0000
,
0010
0000
0100
0010
0100
0000
0001
1000
0001
0000
0100
0000
0010
0000
0000
0000
,
1001
0000
0100
0010
0100
0000
0010
0100
0010
0000
0100
0010
0100
0000
0010
0100
,
0010
0000
0100
0010
0100
0000
0010
0000
1000
0000
0000
0100
0000
0000
0010
0000
,
0100
0000
1000
0100
1000
0000
0001
0010
0001
0000
0010
0000
0100
0000
0000
0000
,
0010
0000
0001
1000
0001
0000
0100
0010
0100
0000
0001
0000
0010
0000
0000
0000
,
1001
0000
1000
0001
1000
0000
0001
1000
0001
0000
1000
0001
1000
0000
0001
1000
,
0001
0000
1000
0001
1000
0000
0001
1000
0001
0000
0000
0010
0000
0000
0010
0000
,
0010
0000
0001
0100
0001
0000
1000
0010
1000
0000
0100
0000
0010
0000
0000
0000
,
0001
0000
1000
0100
1000
0000
0001
0010
0001
0000
0010
0000
0100
0000
0000
0000
,
1000
0000
0001
0010
0001
0000
1000
0100
1000
0000
0001
0100
0001
0000
1000
0010
,
1000
0000
0001
0010
0001
0000
1000
0100
1000
0000
0000
0100
0000
0000
0100
0000
,
1000
0001
0100
0010
1000
0010
0100
0010
,
0000
1000
1000
0001
0100
0010
0100
0010
,
0000
0000
1000
0000
0001
0000
0100
0000
0010
0000
0100
0000
0010
1000
0010
1000
,
0010
0000
0000
0000
0100
0000
0000
0100
0010
0000
0100
0000
0001
0000
0100
0000
,
0001
0000
1000
0000
0010
0100
0000
0100
0001
0000
0100
0000
0010
0100
0000
0000
,
0001
0000
1000
0000
0001
1000
0000
1000
0100
0000
1000
0000
0001
0100
0010
0100
,
0001
0000
1000
0000
0100
0010
0000
0010
0001
0000
0010
0000
0100
1000
0000
0000
,
0001
0000
0100
0000
0010
1000
0000
1000
0001
0000
0100
0001
0010
0100
1000
0000
,
0020
0000
0130
0220
0030
0301
0102
0000
,
0103
0220
0000
0330
1010
1000
1100
0010
,
0200
0000
0000
0320
2000
0000
0030
0001
,
0001
0000
0000
0000
0000
0000
3001
0010
0001
0000
0000
1000
0000
0000
0010
0000
,
0200
0000
0000
0301
0001
0101
0000
0020
,
0200
0000
0000
0000
0030
0000
0301
0000
1000
0100
1000
0100
1000
0100
1000
0000
,
0010
0100
0010
1000
0000
0010
0100
0001
,
0000
1000
0001
0100
0000
0010
0100
0010
,
0200
0300
0020
0030
2000
3000
0002
0003
0200
0300
0020
0030
0200
0300
0020
0030
,
0000
0000
2000
3000
0002
0003
0200
0300
0000
0000
1010
0000
1M10
0000
0000
0000
,
1000
0010
0100
0010
0000
1000
0001
1000
,
0000
0010
0100
0010
0000
1000
0001
0100
,
0020
0030
2000
3000
0020
0030
0200
0300
0020
0030
2000
3000
0002
0003
0200
0300
,
0000
0000
0002
0003
2000
3000
0020
0030
0000
0000
0110
0000
011M
0000
0000
0000
,
0001
1000
0010
0100
0000
0010
1000
0010
,
0100
0001
1000
0010
0000
1000
0001
0100
,
0002
0003
2000
3000
0002
0003
0200
0300
0020
0030
2000
3000
0002
0003
0200
0300
,
0000
0000
0020
0030
2000
3000
0200
0300
0000
0000
0011
0000
M011
0000
0100
0000
,
1000
0001
0100
0010
0000
1000
0001
1000
,
0100
0010
0100
0010
0000
0001
0010
0100
,
0020
0030
0002
0003
2000
3000
0200
0300
0020
0030
0200
0300
2000
3000
0200
0300
,
0000
0000
0020
0030
0200
0300
0020
0030
0000
0000
0001
0010
0001
0010
0001
0010
,
0001
0000
0010
0200
0000
0300
0010
0002
,
0000
0003
0100
0020
0000
0030
1000
0002
,
0000
1003
0020
0000
0030
0000
0000
0000
;

//---------------dance-single - ----------------
#NOTES:
     dance-single:
     :
     Medium:
     5:
     0.429,0.464,0.008,0.067,0.000,348.000,1.000,8.000,24.000,0.000:
0000
0000
0000
0000
,
0100
0000
0001
1000
,
0001
0100
0010
0100
,
0010
0000
0000
1000
0001
0000
0000
1000
,
0100
0010
0100
0000
,
0000
1000
0001
1000
0000
0010
0100
0010
,
0000
1000
0100
1000
0100
0000
0010
0000
,
0001
0000
0000
0000
,
0000
0000
0000
0000
,
0000
1000
0001
0100
0010
0000
0010
0000
,
0000
0100
0001
0100
0010
1000
0010
0000
,
0100
0000
0000
0000
,
0000
0000
0000
0000
,
0000
0010
0001
1000
0010
0100
0010
0100
,
0000
0001
0000
0010
0001
1000
0100
1000
,
0001
0000
0000
0000
,
0000
0000
0000
0000
,
0000
1000
0001
1000
0010
0100
0001
0100
,
0000
0010
0000
1000
0001
1000
0010
1000
,
0000
0010
0100
0000
0000
0000
0000
0000
,
0000
0001
0010
0100
,
0020
0000
0000
0000
0002
0030
1003
0010
,
0100
0000
0001
0000
0100
0000
0010
1000
,
0010
0000
0100
0010
1000
0001
1000
0000
,
0010
0100
0001
0100
0010
0000
1000
0000
,
0001
0100
0001
0000
1000
0010
1000
0000
,
0001
0000
1000
0000
0010
0100
0001
0100
,
0010
0000
0000
1000
0001
1000
0001
1000
,
0001
0000
0010
0000
0100
1000
1000
0100
,
0010
0100
1000
0001
0010
0100
1000
0100
,
0000
0010
0001
0100
0010
0000
1000
0000
,
00M1
000M
1M00
M000
,
00M1
000M
1M00
M000
,
0001
1000
0001
1000
0010
0100
0010
0100
,
0000
0001
1000
0010
1000
0000
0010
0000
,
1M00
M000
001M
00M0
,
1M00
M000
001M
00M0
,
1000
0100
0010
0001
0010
0100
0010
0100
,
1000
0000
0010
0100
0100
0001
0010
0100
,
M010
00M0
010M
0M00
,
M010
00M0
010M
0M00
,
0010
1000
0010
0100
0001
0010
0100
0010
,
0000
0001
0100
0010
1000
0100
0010
0100
,
0000
1000
0001
0100
0010
0100
0001
0000
,
1001
1000
0010
0100
,
0001
0010
0100
0000
1000
0001
0100
0000
,
0001
1000
0010
0000
0100
0001
0100
0000
,
0010
1000
0100
0000
0010
0001
0100
0000
,
0001
1000
0100
0000
0010
0001
0100
0010
,
0100
0000
0001
0010
0000
0100
0010
0000
,
0100
1000
0000
0000
0001
0100
0010
1000
,
0100
0000
0000
1000
0001
0000
0010
0000
,
0100
0000
0010
0100
1000
0000
0001
0010
,
0100
0000
0000
1000
0001
0000
0000
0001
,
1000
0000
0000
0100
0010
0001
1000
0001
,
0010
0000
0100
1000
0000
0001
0010
0001
,
0000
0001
1000
0100
0000
0010
0100
1000
,
0000
0001
0100
0000
0001
0010
0100
0010
,
0000
0001
1000
0000
0000
0000
0000
0000
,
0010
1000
0010
0100
0000
0010
1000
0100
,
0000
1000
0100
0010
0000
0001
1000
0100
,
0000
0010
0001
0000
0100
0001
0100
0001
,
0000
1000
0010
0000
0000
0000
0000
0000
,
0100
0001
1000
0010
0000
0100
0001
1000
,
0100
0010
0100
0010
0000
0001
1000
0010
,
0000
1000
0010
0000
0100
0001
0010
0100
,
0000
0010
0001
0000
0000
0000
0000
1000
,
0100
1000
0010
0100
0000
0001
0010
0100
,
1000
0001
0100
0010
0000
1000
0001
1000
,
0000
0010
0100
0000
0001
0010
0001
0010
,
0000
0100
0010
0100
0000
1000
0010
0000
,
0200
0000
0302
0000
0003
0000
1000
2000
,
0000
3000
0010
0020
0000
0030
1000
2000
,
0000
0100
3200
0000
0300
0000
0000
0000
;

//---------------dance-single - ----------------
#NOTES:
     dance-single:
     :
     Easy:
     4:
     0.240,0.399,0.109,0.210,0.000,162.000,13.000,25.000,0.000,0.000:

0000
0000
0000
0000
,
0000
0000
0000
0000
,
0000
0000
0000
0000
,
0000
0000
0000
0000
,
0000
0000
0000
0000
,
1000
0010
0100
0000
,
0001
1000
0010
0000
,
0200
0000
0320
0000
,
2030
0000
3002
0000
,
0103
0001
0100
0000
,
0010
1000
0010
0000
,
0200
0000
0320
0000
,
2030
0000
3002
0000
,
1003
0001
0100
0000
,
0001
1000
0100
0000
,
0020
0000
0032
0000
,
2003
0000
3200
0000
,
1300
0001
1000
0000
,
0001
0100
0001
0000
,
1000
0000
0010
0000
,
0100
0000
0000
0000
,
0001
0000
0000
0000
,
1000
0000
0000
0000
,
0010
0000
0100
0000
,
0001
0000
1000
0000
,
0100
0000
0010
0000
,
0100
0000
1000
0000
,
0001
0000
0000
0000
,
1000
0000
0000
0000
,
0010
0000
0100
0000
,
0001
0000
1000
0001
,
2000
3100
0000
1010
,
0000
0110
0000
0101
,
0100
0000
0001
0000
,
1000
0000
0001
0010
,
0200
0310
0000
1001
,
0000
1100
0000
0011
,
0001
0000
0100
0000
,
0010
0000
1000
0010
,
2000
3001
0000
0101
,
0000
1100
0000
1010
,
0010
0000
0100
0000
,
0001
0000
0100
0001
,
0010
0100
2000
0000
,
3001
0000
0100
0000
,
0010
0000
0000
0000
,
1000
0000
0000
0000
,
0001
0000
0000
0000
,
0100
0000
0000
0000
,
0010
0000
0000
0100
,
0000
0000
0001
0000
,
1000
0000
0010
0200
,
0320
2030
3020
0230
,
0302
0000
2003
0000
,
3002
0000
0203
0000
,
0310
1000
0010
1000
,
0010
1000
0010
1000
,
0010
0000
1000
0100
,
1100
0000
0000
0000
,
0001
0100
0001
0100
,
0001
0100
0001
0100
,
0001
0000
1000
0001
,
1001
0000
0000
0000
,
1000
0100
1000
0100
,
1000
0100
1000
0100
,
1000
0000
0001
0100
,
0101
0000
0000
0000
,
0001
0010
0001
0010
,
0001
0010
0001
0010
,
0001
0000
0100
0010
,
0110
0000
0000
0000
,
0100
0000
0001
0000
,
1000
0000
0001
0000
,
0100
0000
0000
0000
;

//---------------dance-single - ----------------
#NOTES:
     dance-single:
     :
     Beginner:
     1:
     0.105,0.154,0.059,0.000,0.000,80.000,7.000,0.000,0.000,0.000:
0000
0000
0000
0000
,
0000
0000
0000
0000
,
0000
0000
0000
0000
,
0000
0000
0000
0000
,
0000
0000
0000
0000
,
1000
0000
0000
0000
,
0001
0000
0000
0000
,
0100
0000
0000
0000
,
0010
0000
1000
0000
,
0010
0000
0000
0000
,
0100
0000
0000
0000
,
0001
0000
0000
0000
,
1000
0000
0000
0000
,
0010
0000
0000
0000
,
0100
0000
0000
0000
,
0001
0000
0000
0000
,
1000
0000
0001
0000
,
1000
0000
0000
0000
,
0010
0000
0000
0000
,
0100
0000
0010
0000
,
0100
0000
0000
0000
,
0001
0000
0000
0000
,
0100
0000
0000
0000
,
0010
0000
0000
0000
,
0100
0000
0000
0000
,
0001
0000
0000
0000
,
1000
0000
0000
0000
,
0001
0000
0000
0000
,
0100
0000
0000
0000
,
0010
0000
0000
0000
,
0010
0000
0000
0000
,
1001
0000
0000
0000
,
1001
0000
0000
0000
,
0100
0000
0000
0000
,
0001
0000
0000
0000
,
0110
0000
0000
0000
,
0110
0000
0000
0000
,
0001
0000
0000
0000
,
1000
0000
0000
0000
,
1100
0000
0000
0000
,
1100
0000
0000
0000
,
1000
0000
0000
0000
,
0001
0000
0000
0000
,
0100
0000
0010
0000
,
0100
0000
0000
0000
,
0001
0000
0000
0000
,
1000
0000
0000
0000
,
0010
0000
0000
0000
,
0100
0000
0000
0000
,
0001
0000
0000
0000
,
0000
0000
0000
0000
,
1000
0000
0000
0000
,
0010
0000
0000
0000
,
0100
0000
0000
0000
,
0010
0000
0000
0000
,
1001
0000
0000
0000
,
1000
0000
0001
0000
,
1000
0000
0001
0000
,
1000
0000
0000
0000
,
0010
0000
0000
0000
,
0100
0000
0001
0000
,
0100
0000
0001
0000
,
0100
0000
0000
0000
,
0010
0000
0000
0000
,
1000
0000
0010
0000
,
1000
0000
0010
0000
,
1000
0000
0000
0000
,
0001
0000
0000
0000
,
0100
0000
0010
0000
,
0100
0000
0010
0000
,
0100
0000
0000
0000
,
0001
0000
0000
0000
,
1000
0000
0000
0000
,
0010
0000
0000
0000
;
